osu file format v14

[General]
AudioFilename: SAVIOR OF SONG.mp3
AudioLeadIn: 1500
PreviewTime: 45573
Countdown: 0
SampleSet: Soft
StackLeniency: 0.7
Mode: 3
LetterboxInBreaks: 0
WidescreenStoryboard: 1

[Editor]
Bookmarks: 76981
DistanceSpacing: 1.1
BeatDivisor: 4
GridSize: 4
TimelineZoom: 1

[Metadata]
Title:SAVIOR OF SONG (TV Size)
TitleUnicode:SAVIOR OF SONG (TV Size)
Artist:nano feat. MY FIRST STORY
ArtistUnicode:ナノ feat. MY FIRST STORY
Creator:HabiHolic
Version:S.Star's Normal
Source:蒼き鋼のアルペジオ
Tags:opening aoki hagane no arpeggio of blue steel W_h_i_t_e Trust kantokun Simple_Star
BeatmapID:336421
BeatmapSetID:126583

[Difficulty]
HPDrainRate:7
CircleSize:7
OverallDifficulty:7
ApproachRate:5
SliderMultiplier:0.799999999999999
SliderTickRate:1

[Events]
//Background and Video events
0,0,"BG.jpg",0,0
//Break Periods
//Storyboard Layer 0 (Background)
//Storyboard Layer 1 (Fail)
//Storyboard Layer 2 (Pass)
//Storyboard Layer 3 (Foreground)
//Storyboard Sound Samples
//Background Colour Transformations
3,100,163,162,255

[TimingPoints]
573,312.5,4,2,0,30,1,0
10416,-100,4,2,1,70,0,0
23073,-100,4,2,0,30,0,0
32448,-100,4,2,1,15,0,0
33073,-100,4,2,1,30,0,0
40573,-100,4,2,1,50,0,0
46041,-100,4,2,1,70,0,1
46198,312.5,4,2,1,70,1,1
76041,-100,4,2,1,70,0,0

[Colours]
Combo1 : 234,234,244
Combo2 : 217,255,217
Combo3 : 255,245,223
Combo4 : 255,255,210

[HitObjects]
182,192,573,1,0,0:0:0:0:
329,192,1041,1,0,0:0:0:0:
475,192,1510,1,0,0:0:0:0:
109,192,3073,1,0,0:0:0:0:
256,192,3541,1,0,0:0:0:0:
475,192,4010,1,0,0:0:0:0:
109,192,5573,1,0,0:0:0:0:
256,192,6041,1,0,0:0:0:0:
402,192,6510,1,0,0:0:0:0:
256,192,7916,1,0,0:0:0:0:
182,192,9948,128,2,10416:0:0:0:0:
402,192,10416,1,4,0:0:0:0:
109,192,10729,1,0,0:0:0:0:
256,192,10885,1,0,0:0:0:0:
402,192,11041,1,0,0:0:0:0:
329,192,11354,1,0,0:0:0:0:
256,192,11666,1,0,0:0:0:0:
182,192,11979,1,0,0:0:0:0:
109,192,12291,1,0,0:0:0:0:
36,192,12604,1,0,0:0:0:0:
182,192,12760,1,0,0:0:0:0:
256,192,12916,1,4,0:0:0:0:
475,192,13229,1,0,0:0:0:0:
329,192,13385,1,0,0:0:0:0:
256,192,13541,1,0,0:0:0:0:
109,192,13854,1,0,0:0:0:0:
256,192,14166,1,0,0:0:0:0:
402,192,14479,1,0,0:0:0:0:
182,192,14635,128,0,14948:0:0:0:0:
329,192,14948,128,0,15260:0:0:0:0:
36,192,15260,1,0,0:0:0:0:
256,192,15416,1,4,0:0:0:0:
36,192,15729,1,0,0:0:0:0:
182,192,15885,1,0,0:0:0:0:
329,192,16041,1,0,0:0:0:0:
109,192,16354,1,0,0:0:0:0:
402,192,16666,1,0,0:0:0:0:
182,192,16979,1,0,0:0:0:0:
36,192,17291,1,0,0:0:0:0:
256,192,17604,1,0,0:0:0:0:
329,192,17760,1,0,0:0:0:0:
475,192,17916,1,0,0:0:0:0:
36,192,18229,1,0,0:0:0:0:
182,192,18385,1,0,0:0:0:0:
256,192,18541,1,0,0:0:0:0:
475,192,18854,1,0,0:0:0:0:
402,192,19166,1,0,0:0:0:0:
109,192,19323,128,0,19948:0:0:0:0:
329,192,19635,1,0,0:0:0:0:
256,192,19948,128,0,20573:0:0:0:0:
475,192,19948,1,0,0:0:0:0:
36,192,20573,1,2,0:0:0:0:
256,192,22760,128,0,23073:0:0:0:0:
402,192,23073,1,4,0:0:0:0:
475,192,24323,1,2,0:0:0:0:
182,192,24791,1,2,0:0:0:0:
36,192,25260,1,2,0:0:0:0:
329,192,25573,128,2,26823:0:0:0:0:
109,192,26823,1,2,0:0:0:0:
402,192,27291,1,2,0:0:0:0:
329,192,27760,1,2,0:0:0:0:
256,192,28073,128,2,29323:0:0:0:0:
36,192,29323,1,2,0:0:0:0:
182,192,29791,1,2,0:0:0:0:
329,192,30260,1,2,0:0:0:0:
256,192,30573,1,2,0:0:0:0:
109,192,31041,1,2,0:0:0:0:
402,192,31510,1,2,0:0:0:0:
256,192,31823,1,2,0:0:0:0:
36,192,32291,1,2,0:0:0:0:
329,192,32448,1,0,0:0:0:0:
475,192,32448,1,0,0:0:0:0:
256,192,32604,1,0,0:0:0:0:
182,192,32760,1,2,0:0:0:0:
109,192,32916,1,0,0:0:0:0:
256,192,33073,1,4,0:0:0:0:
402,192,33073,1,0,0:0:0:0:
402,192,33385,1,0,0:0:0:0:
402,192,33698,1,0,0:0:0:0:
402,192,34010,1,0,0:0:0:0:
109,192,34323,1,0,0:0:0:0:
256,192,34323,1,0,0:0:0:0:
109,192,34635,1,0,0:0:0:0:
109,192,34948,1,0,0:0:0:0:
109,192,35260,1,0,0:0:0:0:
182,192,35416,1,0,0:0:0:0:
329,192,35573,1,0,0:0:0:0:
475,192,35573,1,0,0:0:0:0:
329,192,35885,1,0,0:0:0:0:
329,192,36198,1,0,0:0:0:0:
329,192,36510,1,0,0:0:0:0:
36,192,36823,1,0,0:0:0:0:
329,192,36823,1,0,0:0:0:0:
36,192,37135,1,0,0:0:0:0:
36,192,37448,1,0,0:0:0:0:
36,192,37760,1,0,0:0:0:0:
256,192,38073,1,0,0:0:0:0:
475,192,38073,1,0,0:0:0:0:
475,192,38385,1,0,0:0:0:0:
475,192,38698,1,0,0:0:0:0:
475,192,39010,1,0,0:0:0:0:
36,192,39323,1,0,0:0:0:0:
256,192,39323,1,4,0:0:0:0:
109,192,39635,1,0,0:0:0:0:
329,192,39635,1,4,0:0:0:0:
182,192,39948,1,0,0:0:0:0:
402,192,39948,1,4,0:0:0:0:
256,192,40260,1,0,0:0:0:0:
475,192,40260,1,4,0:0:0:0:
182,192,40573,1,0,0:0:0:0:
329,192,40729,1,0,0:0:0:0:
182,192,40885,1,0,0:0:0:0:
402,192,41041,1,4,0:0:0:0:
109,192,41510,1,0,0:0:0:0:
402,192,41666,1,0,0:0:0:0:
109,192,41823,1,0,0:0:0:0:
329,192,41979,1,4,0:0:0:0:
109,192,43073,1,2,0:0:0:0:
402,192,43229,1,2,0:0:0:0:
256,192,43541,1,2,0:0:0:0:
36,192,43854,1,2,0:0:0:0:
182,192,44010,1,2,0:0:0:0:
475,192,44166,1,2,0:0:0:0:
329,192,44323,1,2,0:0:0:0:
182,192,44479,1,2,0:0:0:0:
36,192,44635,1,2,0:0:0:0:
329,192,44791,1,2,0:0:0:0:
475,192,44948,128,2,45573:0:0:0:0:
256,192,45260,128,2,45573:0:0:0:0:
109,192,45885,1,0,0:0:0:0:
256,192,46041,1,4,0:0:0:0:
402,192,46041,1,0,0:0:0:0:
329,192,46354,1,0,0:0:0:0:
182,192,46510,1,0,0:0:0:0:
36,192,46510,1,0,0:0:0:0:
109,192,46823,1,0,0:0:0:0:
256,192,46979,1,0,0:0:0:0:
475,192,47135,1,0,0:0:0:0:
329,192,47135,1,0,0:0:0:0:
182,192,47291,1,0,0:0:0:0:
402,192,47604,1,0,0:0:0:0:
256,192,47760,1,0,0:0:0:0:
109,192,47760,1,0,0:0:0:0:
329,192,48073,1,0,0:0:0:0:
182,192,48229,1,0,0:0:0:0:
329,192,48385,1,0,0:0:0:0:
182,192,48541,1,0,0:0:0:0:
36,192,48541,1,4,0:0:0:0:
256,192,48854,1,0,0:0:0:0:
475,192,49010,1,0,0:0:0:0:
329,192,49010,1,0,0:0:0:0:
109,192,49323,1,0,0:0:0:0:
256,192,49479,1,0,0:0:0:0:
402,192,49635,1,0,0:0:0:0:
36,192,49791,1,0,0:0:0:0:
182,192,49791,1,4,0:0:0:0:
475,192,50260,1,0,0:0:0:0:
256,192,50260,1,0,0:0:0:0:
36,192,50573,1,0,0:0:0:0:
182,192,50729,1,0,0:0:0:0:
256,192,50885,1,0,0:0:0:0:
402,192,50885,1,4,0:0:0:0:
182,192,51198,1,0,0:0:0:0:
329,192,51198,1,0,0:0:0:0:
109,192,51510,1,0,0:0:0:0:
256,192,51510,1,0,0:0:0:0:
475,192,51823,1,0,0:0:0:0:
329,192,51979,1,0,0:0:0:0:
182,192,52135,1,0,0:0:0:0:
36,192,52135,1,0,0:0:0:0:
256,192,52291,1,0,0:0:0:0:
402,192,52448,1,0,0:0:0:0:
109,192,52760,1,0,0:0:0:0:
329,192,52760,1,0,0:0:0:0:
256,192,53073,1,0,0:0:0:0:
182,192,53385,1,0,0:0:0:0:
402,192,53385,1,0,0:0:0:0:
109,192,53698,1,4,0:0:0:0:
256,192,54010,1,0,0:0:0:0:
475,192,54010,1,0,0:0:0:0:
36,192,54323,1,0,0:0:0:0:
182,192,54635,1,0,0:0:0:0:
329,192,54635,1,0,0:0:0:0:
402,192,54948,1,4,0:0:0:0:
109,192,55260,1,0,0:0:0:0:
256,192,55260,1,0,0:0:0:0:
329,192,55573,128,0,56041:0:0:0:0:
475,192,56041,1,4,0:0:0:0:
109,192,56354,1,0,0:0:0:0:
256,192,56510,1,0,0:0:0:0:
402,192,56510,1,0,0:0:0:0:
182,192,56823,1,0,0:0:0:0:
329,192,57135,1,0,0:0:0:0:
475,192,57135,1,0,0:0:0:0:
182,192,57291,1,0,0:0:0:0:
109,192,57760,1,0,0:0:0:0:
402,192,57760,1,0,0:0:0:0:
475,192,58073,1,0,0:0:0:0:
329,192,58229,1,0,0:0:0:0:
36,192,58385,1,0,0:0:0:0:
182,192,58541,1,0,0:0:0:0:
402,192,58541,1,4,0:0:0:0:
109,192,59010,1,0,0:0:0:0:
329,192,59010,1,0,0:0:0:0:
475,192,59323,1,0,0:0:0:0:
329,192,59479,1,0,0:0:0:0:
182,192,59635,1,0,0:0:0:0:
36,192,59791,1,0,0:0:0:0:
475,192,59791,1,4,0:0:0:0:
256,192,60260,1,0,0:0:0:0:
402,192,60260,1,0,0:0:0:0:
36,192,60573,1,0,0:0:0:0:
182,192,60729,1,0,0:0:0:0:
329,192,60885,1,0,0:0:0:0:
475,192,60885,1,4,0:0:0:0:
109,192,61198,1,0,0:0:0:0:
256,192,61198,1,0,0:0:0:0:
182,192,61510,1,0,0:0:0:0:
329,192,61510,1,0,0:0:0:0:
256,192,61823,1,0,0:0:0:0:
109,192,62135,1,0,0:0:0:0:
402,192,62135,1,0,0:0:0:0:
256,192,62448,1,0,0:0:0:0:
36,192,62760,1,0,0:0:0:0:
475,192,62760,1,0,0:0:0:0:
182,192,63073,1,0,0:0:0:0:
329,192,63229,1,0,0:0:0:0:
109,192,63385,1,0,0:0:0:0:
329,192,63541,1,0,0:0:0:0:
182,192,63698,1,4,0:0:0:0:
36,192,63698,1,0,0:0:0:0:
329,192,64010,1,0,0:0:0:0:
402,192,64010,1,0,0:0:0:0:
182,192,64323,1,0,0:0:0:0:
329,192,64635,1,0,0:0:0:0:
402,192,64635,1,0,0:0:0:0:
475,192,64948,1,4,0:0:0:0:
256,192,64948,1,0,0:0:0:0:
109,192,65260,1,0,0:0:0:0:
36,192,65260,1,0,0:0:0:0:
256,192,65573,128,0,66198:0:0:0:0:
402,192,65573,1,4,0:0:0:0:
109,192,66198,1,4,0:0:0:0:
329,192,66510,1,0,0:0:0:0:
475,192,66510,1,0,0:0:0:0:
182,192,66823,1,0,0:0:0:0:
182,192,66979,1,0,0:0:0:0:
329,192,67135,1,0,0:0:0:0:
475,192,67135,1,0,0:0:0:0:
256,192,67448,1,0,0:0:0:0:
36,192,67760,1,0,0:0:0:0:
182,192,67760,1,0,0:0:0:0:
402,192,68073,1,0,0:0:0:0:
402,192,68229,1,0,0:0:0:0:
182,192,68385,1,0,0:0:0:0:
36,192,68385,1,0,0:0:0:0:
329,192,68698,1,0,0:0:0:0:
256,192,69010,1,0,0:0:0:0:
109,192,69010,1,0,0:0:0:0:
402,192,69323,1,0,0:0:0:0:
36,192,69635,1,0,0:0:0:0:
182,192,69635,1,0,0:0:0:0:
256,192,69948,1,0,0:0:0:0:
329,192,70260,1,0,0:0:0:0:
475,192,70260,1,0,0:0:0:0:
182,192,70573,1,0,0:0:0:0:
256,192,70885,1,0,0:0:0:0:
402,192,70885,1,0,0:0:0:0:
36,192,71198,1,2,0:0:0:0:
109,192,71510,1,2,0:0:0:0:
182,192,71823,1,2,0:0:0:0:
256,192,72135,1,2,0:0:0:0:
475,192,72448,1,2,0:0:0:0:
402,192,72760,1,2,0:0:0:0:
329,192,73073,1,2,0:0:0:0:
256,192,73385,1,2,0:0:0:0:
109,192,73698,1,2,0:0:0:0:
402,192,74010,1,2,0:0:0:0:
109,192,74323,1,2,0:0:0:0:
402,192,74635,1,2,0:0:0:0:
182,192,74948,1,2,0:0:0:0:
329,192,75260,1,2,0:0:0:0:
182,192,75573,128,0,76041:0:0:0:0:
329,192,75885,128,0,76041:0:0:0:0:
36,192,76041,1,4,0:0:0:0:
475,192,76354,1,0,0:0:0:0:
329,192,76510,1,0,0:0:0:0:
256,192,76666,1,0,0:0:0:0:
36,192,76823,1,0,0:0:0:0:
182,192,76979,1,0,0:0:0:0:
256,192,77135,1,0,0:0:0:0:
402,192,77291,1,0,0:0:0:0:
329,192,77604,1,0,0:0:0:0:
256,192,77916,1,0,0:0:0:0:
182,192,78229,1,0,0:0:0:0:
109,192,78541,1,0,0:0:0:0:
402,192,78541,1,4,0:0:0:0:
329,192,78854,1,0,0:0:0:0:
182,192,79010,1,0,0:0:0:0:
329,192,79166,1,0,0:0:0:0:
36,192,79479,1,0,0:0:0:0:
182,192,79791,1,0,0:0:0:0:
402,192,80104,1,0,0:0:0:0:
256,192,80260,1,0,0:0:0:0:
109,192,80416,1,0,0:0:0:0:
329,192,80573,1,0,0:0:0:0:
475,192,80729,1,0,0:0:0:0:
256,192,80885,1,0,0:0:0:0:
402,192,81041,1,4,0:0:0:0:
109,192,81041,1,0,0:0:0:0:
475,192,81354,1,0,0:0:0:0:
329,192,81510,1,0,0:0:0:0:
182,192,81666,1,0,0:0:0:0:
402,192,81979,1,0,0:0:0:0:
256,192,82291,1,0,0:0:0:0:
109,192,82604,1,0,0:0:0:0:
182,192,82916,1,0,0:0:0:0:
329,192,83229,1,0,0:0:0:0:
182,192,83385,1,0,0:0:0:0:
36,192,83541,1,4,0:0:0:0:
182,192,83854,1,0,0:0:0:0:
329,192,84010,1,0,0:0:0:0:
475,192,84166,1,0,0:0:0:0:
109,192,84479,1,0,0:0:0:0:
402,192,84791,1,0,0:0:0:0:
182,192,84948,128,0,85260:0:0:0:0:
329,192,85260,1,0,0:0:0:0:
256,192,85573,128,0,86198:0:0:0:0:
